Try Our New BETA Version
GO
(navigation image)
Home Audio Books & Poetry | Community Audio | Computers & Technology | Grateful Dead | Live Music Archive | Music, Arts & Culture | Netlabels | News & Public Affairs | Non-English Audio | Podcasts | Radio Programs | Spirituality & Religion
Search: Advanced Search
Anonymous User (login or join us)
Upload

Listen to audio

item image
Run time: 1:22:16

Stream (help[help])

VBR M3U
MP3 via M3U

Play / Download (help[help])

VBR ZIP

Ogg Vorbis

Lossless zip


All Files: HTTPS Torrent (2/0)

Resources

Bookmark

CrackerCracker Live at Mystic Theatre on 2012-12-29 (December 29, 2012)

something has gone horribly wrong 8-p
Prefer flash? · Embed · Questions/Feedback?


Collection: Cracker
Band/Artist: Cracker
Date: December 29, 2012 (check for other copies)
Venue: Mystic Theatre
Location: Petaluma, CA USA

Source: SBD + AUD mix @24/48
Lineage: WAV > FLAC @24/48
Taped by: morst
Transferred by: morst & digitalist0ne
Keywords: CVB; Cracker; Cramper; Live Concert; SBD + AUD; matrix; mix; high def; NOT for CD burning; theater


Description

01. intro
02. Low
03. The Good Life
04. Been Around The World
05. Seven Days
06. Eurotrash Girl
07. Lonesome Johnny Blues
08. Hey Bret (You Know What Time It Is)
09. 100 Flower Power Maximum
10. Big Dipper
11. Guarded By Monkeys
12. Turn On Tune In Drop Out
13. Sweet Potato
14. Friends
15. Teen Angst
16. Gimme One More Chance
17. encore break
18. Hold Of Myself
19. One Of These Days
20. recordist's signout

Notes

CVB opened for Cracker, CVB set is here: http://archive.org/details/CVB2012-12-29

FoH (Mystic Theatre): Randy Teaford



Hold Of Myself video

Hold Of Myself video
(Quicktime, 941.3 MB)

NCG video

Hold Of Myself video
(H.264, 25.0 MB)




SHNTOOL LEN:
length expanded size cdr WAVE problems fmt ratio filename
0:58.308 16792850 B cxx -- ---xx flac 0.6441 Cracker2012-12-29t01.flac
4:35.613 79376654 B cxx -- ---xx flac 0.7874 Cracker2012-12-29t02.flac
4:09.880 71965412 B cxx -- ---xx flac 0.7714 Cracker2012-12-29t03.flac
5:15.018 90725216 B cxx -- ---xx flac 0.7280 Cracker2012-12-29t04.flac
4:16.368 73833974 B cxx -- ---xx flac 0.7523 Cracker2012-12-29t05.flac
8:23.863 145112732 B cxx -- ---xx flac 0.7458 Cracker2012-12-29t06.flac
2:53.599 49996634 B cxx -- ---xx flac 0.7338 Cracker2012-12-29t07.flac
4:49.256 83305742 B cxx -- ---xx flac 0.7838 Cracker2012-12-29t08.flac
3:11.838 55249286 B cxx -- ---xx flac 0.7693 Cracker2012-12-29t09.flac
5:52.333 101472014 B cxx -- ---xx flac 0.6906 Cracker2012-12-29t10.flac
4:53.527 84535844 B cxx -- ---xx flac 0.7593 Cracker2012-12-29t11.flac
4:22.359 75559346 B cxx -- ---xx flac 0.7656 Cracker2012-12-29t12.flac
3:54.316 67482998 B cxx -- ---xx flac 0.7643 Cracker2012-12-29t13.flac
4:23.742 75957746 B cxx -- ---xx flac 0.6993 Cracker2012-12-29t14.flac
4:07.121 71170904 B cxx -- ---xx flac 0.8021 Cracker2012-12-29t15.flac
4:36.879 79741088 B cxx -- ---xx flac 0.7733 Cracker2012-12-29t16.flac
1:28.672 25537652 B cxx -- ---xx flac 0.6848 Cracker2012-12-29t17.flac
4:56.022 85254296 B cxx -- ---xx flac 0.6934 Cracker2012-12-29t18.flac
4:15.784 73665698 B cxx -- ---xx flac 0.7291 Cracker2012-12-29t19.flac
0:50.674 14594150 B cxx -- ---xx flac 0.6263 Cracker2012-12-29t20.flac
82:15.171 1421330236 B 0.7445 (20 files)


-~-~-~-~-~-~-~-~-~-~-~-~-~-~-~-~-~-~-~-~-~-~-~-~-~-
The Soundscape Preservation Society (Founded 1991)
http://www.iamtypingwithonefinger.com/SPS.html
-~-~-~-~-~-~-~-~-~-~-~-~-~-~-~-~-~-~-~-~-~-~-~-~-~-

Individual Files

Whole Item FormatSize
[generated M3U] M3U Stream 
[generated VBR MP3 ZIP] VBR MP3 ZIP Stream 
Audio Files 24bit Flac VBR MP3 Ogg Vorbis PNG
intro 10.3 MB 
1.4 MB 
662.2 KB 
9.2 KB 
Low 59.6 MB 
6.5 MB 
2.9 MB 
11.0 KB 
The Good Life 52.9 MB 
5.9 MB 
2.7 MB 
10.6 KB 
Been Around The World 63.0 MB 
7.6 MB 
3.4 MB 
10.7 KB 
Seven Days 53.0 MB 
6.3 MB 
2.8 MB 
10.8 KB 
Eurotrash Girl 103.2 MB 
12.2 MB 
5.5 MB 
10.8 KB 
Lonesome Johnny Blues 35.0 MB 
4.2 MB 
1.9 MB 
11.6 KB 
Hey Bret (You Know What Time It Is) 62.3 MB 
6.9 MB 
3.1 MB 
10.5 KB 
100 Flower Power Maximum 40.5 MB 
4.7 MB 
2.1 MB 
9.7 KB 
Big Dipper 66.8 MB 
8.5 MB 
3.8 MB 
12.1 KB 
Guarded By Monkeys 61.2 MB 
7.1 MB 
3.1 MB 
11.1 KB 
Turn On Tune In Drop Out 55.2 MB 
6.3 MB 
2.8 MB 
10.8 KB 
Sweet Potato 49.2 MB 
5.8 MB 
2.6 MB 
11.3 KB 
Friends 50.7 MB 
6.5 MB 
2.9 MB 
11.2 KB 
Teen Angst 54.4 MB 
6.1 MB 
2.7 MB 
10.4 KB 
Gimme One More Chance 58.8 MB 
6.8 MB 
3.2 MB 
7.2 KB 
encore break 16.7 MB 
2.4 MB 
1.2 MB 
10.7 KB 
Hold Of Myself 56.4 MB 
7.1 MB 
3.3 MB 
10.1 KB 
One Of These Days 51.2 MB 
6.3 MB 
2.9 MB 
10.8 KB 
Recordist's Signout 8.7 MB 
1.3 MB 
567.9 KB 
8.7 KB 
Movie Files Thumbnail Animated GIF QuickTime h.264 Ogg Video
Cracker2012-12-29HoldOfMyself.mov 3.9 KB 
48.7 KB 
941.3 MB 
25.0 MB 
19.3 MB 
Image Files Thumbnail JPEG JPEG Thumb
P3510245-audiofixedSlideshowholdOfMyself.mov 4.5 KB 
digital photo by morst 3.7 MB 
6.6 KB 
Information FormatSize
Cracker2012-12-29.ffp Flac FingerPrint 1.2 KB 
Cracker2012-12-29.md5 Checksums 1.2 KB 
Cracker2012-12-29_files.xml Metadata [file] 
Cracker2012-12-29_meta.xml Metadata 6.9 KB 
Cracker2012-12-29_reviews.xml Metadata 542.0 B 
Other Files Text Archive BitTorrent
Cracker2012-12-29-info.txt 5.1 KB 
Cracker2012-12-29_archive.torrent 44.6 KB 

Write a review
Downloaded 876 times
Reviews
Average Rating: 4.00 out of 5 stars4.00 out of 5 stars4.00 out of 5 stars4.00 out of 5 stars

Reviewer: Ty2 - 4.00 out of 5 stars4.00 out of 5 stars4.00 out of 5 stars4.00 out of 5 stars - January 21, 2013
Subject: Fabulous!
Another excellent Camper/Cracker show at the Mystic. Thanks to the taper. Superb quality recording all the way through.

Terms of Use (31 Dec 2014)